the 100 ethd Sonic the Hedgehog 2020 rick and morty s04e09 evo ettv 2160p betaal Scoob! 2020 batwoman the flash The Hunt 2020 insecure The Gentlemen 2020 Birds of Prey (and the Fantabulous Emancipation of One Harley Quinn) 2020 supergirl Extraction 2020 The Blackout hindi hightown Outlander  0 run Snowpiercer S01E02 The Lovebirds 2020 seal team  AEW rick and morty s04e08 legends of tomorrow westworld star wars the rise of skywalker 2019 BILLIONS Hightown S01E02 rq.mp4 etmovies EtHD ddr Stargirl S01E01 The Invisible Man 2020 penny dreadful defending jacob Survive the Night 2020 Good Witch S06E04 Rick and Morty stargirl wwe stargirl s01e02 Penny Dreadful City of Angels S01E05 what we do in the shadows Killing Eve S03E07 Defending Jacob S01E07 Capone 2020 ufc Modern Love s01e07 Live PD s04e65 Billions S05E04 Killing Eve yts Locke  Bloodshot 2020 Harley Quinn Xxx Bad Boys for Life 2020 etrg snowpiercer Blindspot Inheritance 2020 90 Day Fiance Before The 90 Days S04E14 The Wrong Missy 2020 
Warning! Use a VPN When Downloading Torrents!
Your IP Address is 3.235.172.213. Location United States
Your Internet Provider can see when you download torrents! Hide your IP Address with a VPN
ETTV warns: You should use VPN to hide your torrenting. HIDE ME NOW
ETTV Recommended TV Shows
Snowpiercer.S01E02.HDTV.x264-KILLERS[ettv] torrent
Rick.and.Morty.S04E09.WEBRip.x264-BTX[ettv] torrent
I.Know.This.Much.Is.True.S01E03.WEB.H264-BTX[ettv] torrent
Stargirl.S01E02.720p.WEB.x265-[ettv] torrent

ETTV Recommended SD
Measure.For.Measure.2020.HDRip.XviD.AC3-EVO torrent
Return.Of.The.Tooth.Fairy.2020.HDRip.XviD.AC3-EVO torrent
Coven.Of.Evil.2020.HDRip.XviD.AC3-EVO torrent
Celebrity.Crush.2019.HDRip.XviD.AC3-EVO torrent

ETTV Recommended HD
Measure.For.Measure.2020.1080p.WEB-DL.H264.AC3-EVO[EtHD] torrent
Return.Of.The.Tooth.Fairy.2020.1080p.WEB-DL.H264.AC3-EVO[EtHD] torrent
Celebrity.Crush.2019.1080p.WEB-DL.H264.AC3-EVO[EtHD] torrent
Coven.Of.Evil.2020.1080p.WEB-DL.H264.AC3-EVO[EtHD] torrent

ETTV Recommended UHD
Lock.Up.1989.BDRip.2160p.UHD.HDR.Eng.DTS-HD.MA.ETRG torrent
2001.A.Space.Odyssey.1968.BDRip.2160p.UHD.HDR.Eng.DTS-HD.MA.ETRG torrent
War.of.the.Worlds.2005.4K.HDR.2160p.BDRip Ita Eng x265-NAHOM torrent
The Blues Brothers 1980.MULTi.UHD.BluRay.2160p.HDR.HEVC.DTS-X.7.1-DDR.mkv torrent

ETTV Recommended Cam
The Hunt 2020 HDCAM x264 AC3-ETRG torrent
The Burnt Orange Heresy 2020 720p HDCAM-C1NEM4 torrent

ETTV Recommended Foreign
The Bank Job 2008 1080p 10bit BluRay x265 HEVC [Hindi 5.1 - English 5.1] ESub - MoviePirate - Telly.mkv torrent
Muori papà... muori! (2019) [BluRay Rip 1080p ITA-RUS DTS-AC3 SUBS] [M@HD] torrent
All for Nikki  (2020) HDRip 720p [Hindi-Dub] Dual-Audio x264 - 1XCinema torrent
Betaal.S01.2020.UHD.2160p.HDR.WEB-Rip.Atmos.5.1.HEVC-DDR torrent

Sponsored


Download Torrent "Ocean's Eight (2018) (1080p BluRay 10bit x265 HEVC TrueHD 7.1 Qman) [U..."

IMDB Details
Description:

N/A

Genre:

N/A

Download Torrent (Magnet)
Seeds: 34
Leechers: 34
Completed: 242 
Last Checked: 04-09-2018 14:04:30


Details
Title:Ocean's Eight (2018) (1080p BluRay 10bit x265 HEVC TrueHD 7.1 Qman) [U...
Description:


Encode


Source



Media Information
General
Format : Matroska
Format version : Version 4 / Version 2
File size : 6.52 GiB
Duration : 1 h 50 min
Overall bit rate mode : Variable
Overall bit rate : 8 467 kb/s
Encoded date : UTC 2018-09-03 15:12:01
Writing application : mkvmerge v26.0.0 ('In The Game') 64-bit
Writing library : libebml v1.3.6 + libmatroska v1.4.9

Video
ID : 1
Format : HEVC
Format/Info : High Efficiency Video Coding
Format profile : Main [email protected]@Main
Codec ID : V_MPEGH/ISO/HEVC
Duration : 1 h 50 min
Bit rate : 5 604 kb/s
Width : 1 920 pixels
Height : 804 pixels
Display aspect ratio : 2.40:1
Frame rate mode : Constant
Frame rate : 23.976 (24000/1001) FPS
Color space : YUV
Chroma subsampling : 4:2:0
Bit depth : 10 bits
Bits/(Pixel*Frame) : 0.151
Stream size : 4.31 GiB (66%)
Writing library : x265 2.8+66-88ee12651e30:[Windows][MSVC 1915][64 bit] 10bit
Encoding settings : cpuid=1111039 / frame-threads=4 / numa-pools=16 / wpp / no-pmode / no-pme / no-psnr / no-ssim / log-level=2 / input-csp=1 / input-res=1920x804 / interlace=0 / total-frames=158474 / level-idc=0 / high-tier=1 / uhd-bd=0 / ref=4 / no-allow-non-conformance / no-repeat-headers / annexb / no-aud / no-hrd / info / hash=0 / no-temporal-layers / open-gop / min-keyint=23 / keyint=250 / gop-lookahead=0 / bframes=8 / b-adapt=2 / b-pyramid / bframe-bias=0 / rc-lookahead=50 / lookahead-slices=4 / scenecut=40 / radl=0 / no-intra-refresh / ctu=64 / min-cu-size=8 / rect / no-amp / max-tu-size=32 / tu-inter-depth=1 / tu-intra-depth=1 / limit-tu=0 / rdoq-level=2 / dynamic-rd=0.00 / no-ssim-rd / signhide / no-tskip / nr-intra=0 / nr-inter=0 / no-constrained-intra / no-strong-intra-smoothing / max-merge=3 / limit-refs=3 / limit-modes / me=3 / subme=5 / merange=57 / temporal-mvp / weightp / no-weightb / no-analyze-src-pics / deblock=-3:-3 / no-sao / no-sao-non-deblock / rd=4 / no-early-skip / no-rskip / no-fast-intra / no-tskip-fast / no-cu-lossless / b-intra / no-splitrd-skip / rdpenalty=0 / psy-rd=1.00 / psy-rdoq=5.00 / no-rd-refine / no-lossless / cbqpoffs=-3 / crqpoffs=-3 / rc=crf / crf=18.0 / qcomp=0.60 / qpstep=4 / stats-write=0 / stats-read=0 / ipratio=1.40 / pbratio=1.30 / aq-mode=2 / aq-strength=1.00 / cutree / zone-count=0 / no-strict-cbr / qg-size=32 / no-rc-grain / qpmax=69 / qpmin=0 / no-const-vbv / sar=0 / overscan=0 / videoformat=5 / range=0 / colorprim=2 / transfer=2 / colormatrix=2 / chromaloc=0 / display-window=0 / max-cll=0,0 / min-luma=0 / max-luma=1023 / log2-max-poc-lsb=8 / vui-timing-info / vui-hrd-info / slices=1 / no-opt-qp-pps / no-opt-ref-list-length-pps / no-multi-pass-opt-rps / scenecut-bias=0.05 / no-opt-cu-delta-qp / no-aq-motion / no-hdr / no-hdr-opt / no-dhdr10-opt / no-idr-recovery-sei / analysis-reuse-level=5 / scale-factor=0 / refine-intra=0 / refine-inter=0 / refine-mv=0 / no-limit-sao / ctu-info=0 / no-lowpass-dct / refine-mv-type=0 / copy-pic=1 / max-ausize-factor=1.0 / no-dynamic-refine / no-single-sei
Language : English
Default : Yes
Forced : No

Audio
ID : 2
Format : Atmos / TrueHD
Codec ID : A_TRUEHD
Duration : 1 h 50 min
Bit rate mode : Variable
Bit rate : 2 782 kb/s
Maximum bit rate : 4 275 kb/s
Channel(s) : Object Based / 8 channels
Channel positions : Object Based / Front: L C R, Side: L R, Back: L R, LFE
Sampling rate : / 48.0 kHz
Frame rate : 1 200.000 FPS (40 spf)
Compression mode : Lossless
Stream size : 2.14 GiB (33%)
Language : English
Default : Yes
Forced : No

Subtitle
ID : 3
Format : PGS
Muxing mode : zlib
Codec ID : S_HDMV/PGS
Codec ID/Info : Picture based subtitle format used on BDs/HD-DVDs
Duration : 1 h 49 min
Bit rate : 42.6 kb/s
Count of elements : 3526
Stream size : 33.4 MiB (1%)
Language : English
Default : Yes
Forced : No

Menu
00:00:00.000 : en:Chapter 1
00:11:18.261 : en:Chapter 2
00:20:06.747 : en:Chapter 3
00:31:37.104 : en:Chapter 4
00:41:29.612 : en:Chapter 5
00:49:18.914 : en:Chapter 6
00:56:22.296 : en:Chapter 7
01:05:50.071 : en:Chapter 8
01:16:32.546 : en:Chapter 9
01:27:01.174 : en:Chapter 10
01:35:42.153 : en:Chapter 11
01:44:08.659 : en:Chapter 12

Source Information
Release: REMUX


Note From UTR
We have no issue with individuals posting or re-uploading our torrents on a platform we aren't on. However, if this is something you'd like to do, please do so in a 'as-is' format. We ask that you do not create a new torrent, include all descriptions you see above including the UTR logo, tags, notes and screenshots. If you'd like to become a permanent poster on a website we don't post to, feel free to get in contact with a UniTeam member.

If possible please donate: BTC 1QA5fum5AyXvWzdVCkQzUNvw3Ef15fHRaR


Category:Movies > HEVC/x265
Lang:English  English
Total Size:6.52 GB
Info Hash:41cbda3bcffaf53b83511c6f0bd635a4d477b010
Added By:UTRHD
Date Added:04-09-2018 14:04:27

Files

File List: 
 File Size
Ocean's.Eight.(2018).1080p.BluRay.10-bit.x265.TrueHD.7.1 Qman[UTR].(8D094F8B).mkv6.52 GB



Comments

There are currently no comments. Be the first one to write something !