bad boys Greys Anatomy S16E19 The Call of the Wild 2020 yts The Sinner S03E08 The Walking Dead S10E14 Fantasy Island 2020 underwater jumanji the next level 2019 Frozen II 2019 blacklist the way back 2020 Brooklyn Nine-Nine S07E09 Joker 2019 bloodshot xxx RuPauls Drag Race S12E05 etrg Ozark s03e05 onward 2020 greys anatomy Star Trek Picard Sonic the Hedgehog 2020 evo Contagion 2011 ozark the blacklist  WALKING DEAD a quiet place part ii 2020 Trolls World Tour 2020 ethd Ozark s03e04 Star Trek Picard S01E09 MacGyver S04E07 bad boys for life The Invisible Man 2020 The Gentlemen 2019 The Hunt 2020 gold rush 1917 2019 ettv ddr Deputy s01e13 Tiger King Murder, Mayhem and Madness S01E01 The Platform 2019 Spenser Confidential 2020 Westworld s03e02 The Banker 2020 Star Trek Picard S01E10 the walking dead Hawaii Five-0 S10E21 The Blacklist S07E12 bad boys for life 2020 Westworld Underwater 2020 hindi Spies in Disguise 2019 the gentlemen 2020 Dolittle 2020 etmovies Birds of Prey (and the Fantabulous Emancipation of One Harley Quinn) 2020 Ozark S03E01 bloodshot 2020 knives out 2019 the gentlemen Ozark s03e02 the call of the wild Picard rq.mp4 brooklyn nine nine Ozark s03e03 Star Wars The Rise of Skywalker 2019 
ETTV Recommended TV Shows
The.Walking.Dead.S10E14.WEB.H264-XLF[ettv] torrent
Hawaii.Five-0.2010.S10E21.HDTV.x264-SVA[ettv] torrent
Strike.Back.S08E07.WEB.H264-XLF[ettv] torrent
WWE Smackdown 2020 03 27 HDTV x264-Star [TJET] torrent

ETTV Recommended SD
Homeward.2020.BRRip.XviD.AC3-EVO torrent
What.Love.Looks.Like.2020.HDRip.XviD.AC3-EVO torrent
Red Shoes and the Seven Dwarfs.2020.HDRip.XviD-EVO torrent
In.Vino.2019.HDRip.XviD.AC3-EVO torrent

ETTV Recommended HD
What.Love.Looks.Like.2020.1080p.AMZN.WEB-DL.DDP2.0.H264-CMRG[EtHD] torrent
Haunt.2019.1080p.BluRay.x264-GETiT[EtHD] torrent
Red Shoes and the Seven Dwarfs.2020.1080p.HDRip.X264.AC3-EVO[EtHD] torrent
In.Vino.2019.1080p.WEB-DL.H264.AC3-EVO[EtHD] torrent

ETTV Recommended UHD
Star.Wars.Episode.IX.The.Rise.of.Skywalker.2019.4K.HDR.2160p.BDRip Ita Eng x265-NAHOM torrent
Transformers.Age.of.Extinction.2014.BDRip.2160p.UHD.HDR.TrueHD.ETRG torrent
Transformers.The.Last.Knight.2017.BDRip.2160p.UHD.HDR.TrueHD.ETRG torrent
Lady.and.the.Tramp 2019 4K.HDR.2160p.WEBDL Ita Eng x265-NAHOM torrent

ETTV Recommended Cam
My Spy 2020 HDCAM x264 AC3-ETRG torrent
The Hunt 2020 HDCAM x264 AC3-ETRG torrent
The Burnt Orange Heresy 2020 720p HDCAM-C1NEM4 torrent
Fantasy Island 2020 UNRATED HDTS XViD AC3-ETRG torrent

ETTV Recommended Foreign
Bonus.2020.1080p.AMZN.WEB-DL.DD+5.1.x264-Telly torrent
Underwater (2020) HDRip 720p [Hindi-Dub] Dual-Audio x264 - 1XCinema torrent
Bloodshot (2020) ITA-ENG Ac3 5.1 WEBRip 1080p H264 [ArMor] torrent
The Black Hole (2006) 720p WEBRip x264 Eng Subs [Dual Audio] [Hindi DD 2.0 - English 2.0] Exclusive By -=!Dr.STAR!=- torrent


Download Torrent "Marvel's Doctor Strange IMAX Bluray BDrip1080p DTS-HD MA 7.1 x265.HEV..."

IMDB Details
Description:

N/A

Genre:

N/A

Download Torrent (Magnet)
Seeds: 228
Leechers: 28
Completed: 1,789 
Last Checked: 16-08-2018 03:05:10


Details
Title:Marvel's Doctor Strange IMAX Bluray BDrip1080p DTS-HD MA 7.1 x265.HEV...
Description:



Screenshots


Source


Encode



Media Information

Unique ID : 247557845874497855520747896775805435151 (0xBA3DE826420726B68458119B1F0AFD0F)
Complete name : Marvel's Doctor Strange IMAX Bluray BDrip1080p DTS-HD MA 7.1 x265.HEVC D0ct0rLew[UTR].mkv
Format : Matroska
Format version : Version 4 / Version 2
File size : 13.4 GiB
Duration : 1 h 54 min
Overall bit rate : 16.7 Mb/s
Encoded date : UTC 2018-08-15 12:08:09
Writing application : mkvmerge v15.0.0 ('Duel with the Devil') 64-bit
Writing library : libebml v1.3.5 + libmatroska v1.4.5

Video
ID : 2
Format : HEVC
Format/Info : High Efficiency Video Coding
Format profile : Main [email protected]@Main
Codec ID : V_MPEGH/ISO/HEVC
Duration : 1 h 54 min
Bit rate : 10.9 Mb/s
Width : 1 920 pixels
Height : 1 080 pixels
Display aspect ratio : 16:9
Frame rate mode : Constant
Frame rate : 23.976 (24000/1001) FPS
Color space : YUV
Chroma subsampling : 4:2:0
Bit depth : 10 bits
Bits/(Pixel*Frame) : 0.220
Stream size : 8.78 GiB (65%)
Writing library : x265 2.7+25-e1ed4d609b52:[Windows][MSVC 1914][64 bit] 10bit
Encoding settings : cpuid=1050111 / frame-threads=3 / numa-pools=8 / wpp / no-pmode / no-pme / no-psnr / no-ssim / log-level=2 / input-csp=1 / input-res=1920x1080 / interlace=0 / total-frames=165400 / level-idc=0 / high-tier=1 / uhd-bd=0 / ref=5 / no-allow-non-conformance / no-repeat-headers / annexb / no-aud / no-hrd / info / hash=0 / no-temporal-layers / open-gop / min-keyint=23 / keyint=250 / gop-lookahead=0 / bframes=8 / b-adapt=2 / b-pyramid / bframe-bias=0 / rc-lookahead=90 / lookahead-slices=0 / scenecut=40 / radl=0 / no-intra-refresh / ctu=64 / min-cu-size=8 / no-rect / no-amp / max-tu-size=32 / tu-inter-depth=3 / tu-intra-depth=3 / limit-tu=4 / rdoq-level=2 / dynamic-rd=0.00 / no-ssim-rd / signhide / no-tskip / nr-intra=0 / nr-inter=0 / no-constrained-intra / no-strong-intra-smoothing / max-merge=4 / limit-refs=1 / limit-modes / me=3 / subme=4 / merange=92 / temporal-mvp / weightp / weightb / no-analyze-src-pics / deblock=0:0 / sao / no-sao-non-deblock / rd=6 / no-early-skip / rskip / no-fast-intra / no-tskip-fast / no-cu-lossless / b-intra / no-splitrd-skip / rdpenalty=0 / psy-rd=1.30 / psy-rdoq=1.00 / no-rd-refine / no-lossless / cbqpoffs=0 / crqpoffs=0 / rc=crf / crf=17.5 / qcomp=0.60 / qpstep=4 / stats-write=0 / stats-read=0 / ipratio=1.40 / pbratio=1.30 / aq-mode=3 / aq-strength=1.40 / cutree / zone-count=0 / no-strict-cbr / qg-size=32 / no-rc-grain / qpmax=69 / qpmin=0 / no-const-vbv / sar=0 / overscan=0 / videoformat=5 / range=0 / colorprim=2 / transfer=2 / colormatrix=2 / chromaloc=0 / display-window=0 / max-cll=0,0 / min-luma=0 / max-luma=1023 / log2-max-poc-lsb=8 / vui-timing-info / vui-hrd-info / slices=1 / no-opt-qp-pps / no-opt-ref-list-length-pps / no-multi-pass-opt-rps / scenecut-bias=0.05 / no-opt-cu-delta-qp / no-aq-motion / no-hdr / no-hdr-opt / no-dhdr10-opt / no-idr-recovery-sei / analysis-reuse-level=5 / scale-factor=0 / refine-intra=0 / refine-inter=0 / refine-mv=0 / no-limit-sao / ctu-info=0 / no-lowpass-dct / refine-mv-type=0 / copy-pic=1 / max-ausize-factor=1.0 / no-dynamic-refine / no-single-sei
Default : Yes
Forced : No

Audio #1
ID : 1
Format : DTS
Format/Info : Digital Theater Systems
Format profile : MA / Core
Codec ID : A_DTS
Duration : 1 h 54 min
Bit rate mode : Variable / Constant
Bit rate : 5 130 kb/s / 1 509 kb/s
Channel(s) : 8 channels / 6 channels
Channel positions : Front: L C R, Side: L R, Back: L R, LFE / Front: L C R, Side: L R, LFE
Sampling rate : 48.0 kHz
Frame rate : 93.750 FPS (512 SPF)
Bit depth : 24 bits
Compression mode : Lossless / Lossy
Stream size : 4.12 GiB (31%)
Language : English
Default : Yes
Forced : No

Audio #2
ID : 4
Format : AC-3
Format/Info : Audio Coding 3
Codec ID : A_AC3
Duration : 1 h 54 min
Bit rate mode : Constant
Bit rate : 640 kb/s
Channel(s) : 6 channels
Channel positions : Front: L C R, Side: L R, LFE
Sampling rate : 48.0 kHz
Frame rate : 31.250 FPS (1536 SPF)
Bit depth : 16 bits
Compression mode : Lossy
Stream size : 526 MiB (4%)
Title : AC3 (?????????????) Blu-ray EUR
Language : Russian
Service kind : Complete Main
Default : No
Forced : No

Text #1
ID : 3
Format : UTF-8
Codec ID : S_TEXT/UTF8
Codec ID/Info : UTF-8 Plain Text
Duration : 1 h 52 min
Bit rate : 44 b/s
Count of elements : 1297
Stream size : 36.9 KiB (0%)
Language : English
Default : Yes
Forced : No

Text #2
ID : 5
Format : UTF-8
Codec ID : S_TEXT/UTF8
Codec ID/Info : UTF-8 Plain Text
Duration : 1 h 33 min
Bit rate : 0 b/s
Count of elements : 3
Stream size : 86.0 Bytes (0%)
Title : ??????? (?????????????)
Language : Russian
Default : No
Forced : No

Text #3
ID : 6
Format : UTF-8
Codec ID : S_TEXT/UTF8
Codec ID/Info : UTF-8 Plain Text
Duration : 1 h 52 min
Bit rate : 73 b/s
Count of elements : 1289
Stream size : 60.7 KiB (0%)
Title : ???????
Language : Russian
Default : No
Forced : No

Menu
00:00:00.000 : en:00:00:00.000
00:04:34.566 : en:00:04:34.566
00:10:16.825 : en:00:10:16.825
00:18:32.153 : en:00:18:32.153
00:24:37.017 : en:00:24:37.017
00:31:40.482 : en:00:31:40.482
00:38:33.811 : en:00:38:33.811
00:43:16.135 : en:00:43:16.135
00:48:24.527 : en:00:48:24.527
00:55:34.498 : en:00:55:34.498
01:05:04.359 : en:01:05:04.359
01:12:38.437 : en:01:12:38.437
01:22:14.346 : en:01:22:14.346
01:28:28.637 : en:01:28:28.637
01:35:00.904 : en:01:35:00.904
01:45:06.509 : en:01:45:06.509

Source Media Information

Unique ID : 211027520388871743072213365392260524329 (0x9EC26C0C2B0D7721BC5A53603A8CE929)
Complete name : ?????? ??????? MARVEL'S_DOCTOR_STRANGE_-_BLU-RAY IMAX.mkv
Format : Matroska
Format version : Version 4 / Version 2
File size : 26.3 GiB
Duration : 1 h 54 min
Overall bit rate mode : Variable
Overall bit rate : 32.8 Mb/s
Encoded date : UTC 2017-03-04 15:08:39
Writing application : mkvmerge v9.8.0 ('Kuglblids') 32bit
Writing library : libebml v1.3.4 + libmatroska v1.4.5

Video
ID : 1
Format : AVC
Format/Info : Advanced Video Codec
Format profile : [email protected]
Format settings : CABAC / 3 Ref Frames
Format settings, CABAC : Yes
Format settings, RefFrames : 3 frames
Codec ID : V_MPEG4/ISO/AVC
Duration : 1 h 54 min
Bit rate mode : Variable
Bit rate : 27.0 Mb/s
Maximum bit rate : 35.0 Mb/s
Width : 1 920 pixels
Height : 1 080 pixels
Display aspect ratio : 16:9
Frame rate mode : Constant
Frame rate : 23.976 (24000/1001) FPS
Color space : YUV
Chroma subsampling : 4:2:0
Bit depth : 8 bits
Scan type : Progressive
Bits/(Pixel*Frame) : 0.543
Stream size : 21.7 GiB (82%)
Title : ?????? ??????? (2016)
Language : English
Default : Yes
Forced : No

Audio #1
ID : 2
Format : AC-3
Format/Info : Audio Coding 3
Codec ID : A_AC3
Duration : 1 h 54 min
Bit rate mode : Constant
Bit rate : 640 kb/s
Channel(s) : 6 channels
Channel positions : Front: L C R, Side: L R, LFE
Sampling rate : 48.0 kHz
Frame rate : 31.250 FPS (1536 SPF)
Bit depth : 16 bits
Compression mode : Lossy
Stream size : 526 MiB (2%)
Title : AC3 (?????????????) Blu-ray EUR
Language : Russian
Service kind : Complete Main
Default : Yes
Forced : No

Audio #2
ID : 3
Format : DTS
Format/Info : Digital Theater Systems
Format profile : MA / Core
Codec ID : A_DTS
Duration : 1 h 54 min
Bit rate mode : Variable / Constant
Bit rate : 5 130 kb/s / 1 509 kb/s
Channel(s) : 8 channels / 6 channels
Channel positions : Front: L C R, Side: L R, Back: L R, LFE / Front: L C R, Side: L R, LFE
Sampling rate : 48.0 kHz
Frame rate : 93.750 FPS (512 SPF)
Bit depth : 24 bits
Compression mode : Lossless / Lossy
Stream size : 4.12 GiB (16%)
Title : DTS-HD MA (????????)
Language : English
Default : No
Forced : No

Text #1
ID : 4
Format : UTF-8
Codec ID : S_TEXT/UTF8
Codec ID/Info : UTF-8 Plain Text
Duration : 1 h 33 min
Bit rate : 0 b/s
Count of elements : 3
Stream size : 86.0 Bytes (0%)
Title : ??????? (?????????????)
Language : Russian
Default : Yes
Forced : No

Text #2
ID : 5
Format : UTF-8
Codec ID : S_TEXT/UTF8
Codec ID/Info : UTF-8 Plain Text
Duration : 1 h 52 min
Bit rate : 73 b/s
Count of elements : 1289
Stream size : 60.7 KiB (0%)
Title : ???????
Language : Russian
Default : No
Forced : No

Text #3
ID : 6
Format : UTF-8
Codec ID : S_TEXT/UTF8
Codec ID/Info : UTF-8 Plain Text
Duration : 1 h 52 min
Bit rate : 43 b/s
Count of elements : 1319
Stream size : 36.1 KiB (0%)
Title : ??????????
Language : English
Default : No
Forced : No

Menu
00:00:00.000 : en:00:00:00.000
00:04:34.566 : en:00:04:34.566
00:10:16.825 : en:00:10:16.825
00:18:32.153 : en:00:18:32.153
00:24:37.017 : en:00:24:37.017
00:31:40.482 : en:00:31:40.482
00:38:33.811 : en:00:38:33.811
00:43:16.135 : en:00:43:16.135
00:48:24.527 : en:00:48:24.527
00:55:34.498 : en:00:55:34.498
01:05:04.359 : en:01:05:04.359
01:12:38.437 : en:01:12:38.437
01:22:14.346 : en:01:22:14.346
01:28:28.637 : en:01:28:28.637
01:35:00.904 : en:01:35:00.904
01:45:06.509 : en:01:45:06.509


We have no issue with individuals posting or re-uploading our torrents on a platform we aren't on. However, if this is something you'd like to do, please do so in a 'as-is' format. We ask that you do not create a new torrent, include all descriptions you see above including the UTR logo, tags, notes and screenshots. If you'd like to become a permanent poster on a website we don't post to, feel free to get in contact with a UniTeam member.



Category:Movies > HEVC/x265
Lang:English  English
Total Size:13.42 GB
Info Hash:00fd1c00e9df2a7d487d2a70c967f9a58569a5af
Added By:UTRHD
Date Added:16-08-2018 03:05:02

Files

File List: 
 File Size
Marvel's Doctor Strange IMAX Bluray BDrip1080p DTS-HD MA 7.1 x265.HEVC D0ct0rLew[UTR].mkv13.42 GB



Comments

<< Previous      Next >>
1 - 1

[Report] Posted: 16-08-2018 at 07:44:03
drstrange


what about Avengers: Infinity War IMAX VERSION?

1 - 1
<< Previous      Next >>