the 100 ethd Sonic the Hedgehog 2020 rick and morty s04e09 evo ettv 2160p betaal Scoob! 2020 batwoman the flash The Hunt 2020 insecure The Gentlemen 2020 Birds of Prey (and the Fantabulous Emancipation of One Harley Quinn) 2020 supergirl Extraction 2020 The Blackout hindi hightown Outlander  0 run Snowpiercer S01E02 The Lovebirds 2020 seal team  AEW rick and morty s04e08 legends of tomorrow westworld star wars the rise of skywalker 2019 BILLIONS Hightown S01E02 rq.mp4 etmovies EtHD ddr Stargirl S01E01 The Invisible Man 2020 penny dreadful defending jacob Survive the Night 2020 Good Witch S06E04 Rick and Morty stargirl wwe stargirl s01e02 Penny Dreadful City of Angels S01E05 what we do in the shadows Killing Eve S03E07 Defending Jacob S01E07 Capone 2020 ufc Modern Love s01e07 Live PD s04e65 Billions S05E04 Killing Eve yts Locke  Bloodshot 2020 Harley Quinn Xxx Bad Boys for Life 2020 etrg snowpiercer Blindspot Inheritance 2020 90 Day Fiance Before The 90 Days S04E14 The Wrong Missy 2020 
Warning! Use a VPN When Downloading Torrents!
Your IP Address is 3.235.172.213. Location United States
Your Internet Provider can see when you download torrents! Hide your IP Address with a VPN
ETTV warns: You should use VPN to hide your torrenting. HIDE ME NOW
ETTV Recommended TV Shows
Snowpiercer.S01E02.HDTV.x264-KILLERS[ettv] torrent
Rick.and.Morty.S04E09.WEBRip.x264-BTX[ettv] torrent
I.Know.This.Much.Is.True.S01E03.WEB.H264-BTX[ettv] torrent
Stargirl.S01E02.720p.WEB.x265-[ettv] torrent

ETTV Recommended SD
Measure.For.Measure.2020.HDRip.XviD.AC3-EVO torrent
Return.Of.The.Tooth.Fairy.2020.HDRip.XviD.AC3-EVO torrent
Coven.Of.Evil.2020.HDRip.XviD.AC3-EVO torrent
Celebrity.Crush.2019.HDRip.XviD.AC3-EVO torrent

ETTV Recommended HD
Measure.For.Measure.2020.1080p.WEB-DL.H264.AC3-EVO[EtHD] torrent
Return.Of.The.Tooth.Fairy.2020.1080p.WEB-DL.H264.AC3-EVO[EtHD] torrent
Celebrity.Crush.2019.1080p.WEB-DL.H264.AC3-EVO[EtHD] torrent
Coven.Of.Evil.2020.1080p.WEB-DL.H264.AC3-EVO[EtHD] torrent

ETTV Recommended UHD
Lock.Up.1989.BDRip.2160p.UHD.HDR.Eng.DTS-HD.MA.ETRG torrent
2001.A.Space.Odyssey.1968.BDRip.2160p.UHD.HDR.Eng.DTS-HD.MA.ETRG torrent
War.of.the.Worlds.2005.4K.HDR.2160p.BDRip Ita Eng x265-NAHOM torrent
The Blues Brothers 1980.MULTi.UHD.BluRay.2160p.HDR.HEVC.DTS-X.7.1-DDR.mkv torrent

ETTV Recommended Cam
The Hunt 2020 HDCAM x264 AC3-ETRG torrent
The Burnt Orange Heresy 2020 720p HDCAM-C1NEM4 torrent

ETTV Recommended Foreign
The Bank Job 2008 1080p 10bit BluRay x265 HEVC [Hindi 5.1 - English 5.1] ESub - MoviePirate - Telly.mkv torrent
Muori papà... muori! (2019) [BluRay Rip 1080p ITA-RUS DTS-AC3 SUBS] [M@HD] torrent
All for Nikki  (2020) HDRip 720p [Hindi-Dub] Dual-Audio x264 - 1XCinema torrent
Betaal.S01.2020.UHD.2160p.HDR.WEB-Rip.Atmos.5.1.HEVC-DDR torrent

Sponsored


Download Torrent "Deadpool 2 (2018) (1080p BluRay 10bit x265 HEVC DTS-HD MA 7.1 Qman) [UTR-HD..."

IMDB Details
Description:

Foul-mouthed mutant mercenary Wade Wilson (AKA. Deadpool), brings together a team of fellow mutant rogues to protect a young boy with supernatural abilities from the brutal, time-traveling cyborg, Cable.

Genre:

Action, Adventure, Comedy

Download Torrent (Magnet)
Seeds: 32
Leechers: 3
Completed: 444 
Last Checked: 13-08-2018 12:10:51


Details
Title:Deadpool 2 (2018) (1080p BluRay 10bit x265 HEVC DTS-HD MA 7.1 Qman) [UTR-HD...
Description:





Media Information
General
Format : Matroska
Format version : Version 4 / Version 2
File size : 13.3 GiB
Duration : 1 h 59 min
Overall bit rate : 15.9 Mb/s
Encoded date : UTC 2018-08-13 08:58:06
Writing application : mkvmerge v25.0.0 ('Prog Noir') 64-bit
Writing library : libebml v1.3.6 + libmatroska v1.4.9

Video
ID : 1
Format : HEVC
Format/Info : High Efficiency Video Coding
Format profile : Main [email protected]@Main
Codec ID : V_MPEGH/ISO/HEVC
Duration : 1 h 59 min
Bit rate : 10.7 Mb/s
Width : 1 920 pixels
Height : 1 080 pixels
Display aspect ratio : 16:9
Frame rate mode : Constant
Frame rate : 23.976 (24000/1001) FPS
Color space : YUV
Chroma subsampling : 4:2:0
Bit depth : 10 bits
Bits/(Pixel*Frame) : 0.214
Stream size : 8.88 GiB (67%)
Writing library : x265 2.8+57-eea92165b035:[Windows][MSVC 1914][64 bit] 10bit
Encoding settings : cpuid=1111039 / frame-threads=2 / numa-pools=4 / wpp / no-pmode / no-pme / no-psnr / no-ssim / log-level=2 / input-csp=1 / input-res=1920x1080 / interlace=0 / total-frames=171673 / level-idc=0 / high-tier=1 / uhd-bd=0 / ref=4 / no-allow-non-conformance / no-repeat-headers / annexb / no-aud / no-hrd / info / hash=0 / no-temporal-layers / open-gop / min-keyint=23 / keyint=250 / gop-lookahead=0 / bframes=8 / b-adapt=2 / b-pyramid / bframe-bias=0 / rc-lookahead=80 / lookahead-slices=4 / scenecut=40 / radl=0 / no-intra-refresh / ctu=64 / min-cu-size=8 / rect / amp / max-tu-size=32 / tu-inter-depth=1 / tu-intra-depth=1 / limit-tu=0 / rdoq-level=2 / dynamic-rd=0.00 / no-ssim-rd / signhide / no-tskip / nr-intra=0 / nr-inter=0 / no-constrained-intra / no-strong-intra-smoothing / max-merge=3 / limit-refs=3 / limit-modes / me=3 / subme=3 / merange=57 / temporal-mvp / weightp / no-weightb / no-analyze-src-pics / deblock=-1:-1 / no-sao / no-sao-non-deblock / rd=4 / no-early-skip / no-rskip / no-fast-intra / no-tskip-fast / no-cu-lossless / b-intra / no-splitrd-skip / rdpenalty=0 / psy-rd=1.00 / psy-rdoq=5.00 / no-rd-refine / no-lossless / cbqpoffs=-3 / crqpoffs=-3 / rc=crf / crf=18.0 / qcomp=0.60 / qpstep=4 / stats-write=0 / stats-read=0 / ipratio=1.40 / pbratio=1.30 / aq-mode=3 / aq-strength=1.00 / cutree / zone-count=0 / no-strict-cbr / qg-size=32 / no-rc-grain / qpmax=69 / qpmin=0 / no-const-vbv / sar=0 / overscan=0 / videoformat=5 / range=0 / colorprim=2 / transfer=2 / colormatrix=2 / chromaloc=0 / display-window=0 / max-cll=0,0 / min-luma=0 / max-luma=1023 / log2-max-poc-lsb=8 / vui-timing-info / vui-hrd-info / slices=1 / no-opt-qp-pps / no-opt-ref-list-length-pps / no-multi-pass-opt-rps / scenecut-bias=0.05 / no-opt-cu-delta-qp / no-aq-motion / no-hdr / no-hdr-opt / no-dhdr10-opt / no-idr-recovery-sei / analysis-reuse-level=5 / scale-factor=0 / refine-intra=0 / refine-inter=0 / refine-mv=0 / no-limit-sao / ctu-info=0 / no-lowpass-dct / refine-mv-type=0 / copy-pic=1 / max-ausize-factor=1.0 / no-dynamic-refine / no-single-sei
Language : English
Default : Yes
Forced : No

Audio #1
ID : 2
Format : DTS
Format/Info : Digital Theater Systems
Format profile : MA / Core
Mode : 16
Format settings, Endianness : Big
Codec ID : A_DTS
Duration : 1 h 59 min
Bit rate mode : Variable / Constant
Bit rate : 5 040 kb/s / 1 509 kb/s
Channel(s) : 8 channels / 6 channels
Channel positions : Front: L C R, Side: L R, Back: L R, LFE / Front: L C R, Side: L R, LFE
Sampling rate : 48.0 kHz
Frame rate : 93.750 FPS (512 spf)
Bit depth : 24 bits
Compression mode : Lossless / Lossy
Stream size : 4.20 GiB (32%)
Language : English
Default : Yes
Forced : No

Audio #2
ID : 3
Format : AC-3
Format/Info : Audio Coding 3
Mode extension : CM (complete main)
Format settings, Endianness : Big
Codec ID : A_AC3
Duration : 1 h 59 min
Bit rate mode : Constant
Bit rate : 224 kb/s
Channel(s) : 2 channels
Channel positions : Front: L R
Sampling rate : 48.0 kHz
Frame rate : 31.250 FPS (1536 spf)
Bit depth : 16 bits
Compression mode : Lossy
Stream size : 191 MiB (1%)
Title : Commentary by Ryan Reynolds/David Leitch/Rhett Reese/Paul Wernick
Language : English
Default : No
Forced : No

Subtitle #1
ID : 4
Format : PGS
Muxing mode : zlib
Codec ID : S_HDMV/PGS
Codec ID/Info : Picture based subtitle format used on BDs/HD-DVDs
Duration : 13 s 263 ms
Bit rate : 18.4 kb/s
Count of elements : 4
Stream size : 29.8 KiB (0%)
Title : English (Forced only)
Language : English
Default : Yes
Forced : Yes

Subtitle #2
ID : 5
Format : PGS
Muxing mode : zlib
Codec ID : S_HDMV/PGS
Codec ID/Info : Picture based subtitle format used on BDs/HD-DVDs
Duration : 1 h 58 min
Bit rate : 47.8 kb/s
Count of elements : 4304
Stream size : 40.4 MiB (0%)
Title : English (SDH)
Language : English
Default : No
Forced : No

Menu
00:00:00.000 : en:Chapter 01
00:02:31.693 : en:Chapter 02
00:05:53.436 : en:Chapter 03
00:08:11.658 : en:Chapter 04
00:11:30.565 : en:Chapter 05
00:14:52.100 : en:Chapter 06
00:16:20.980 : en:Chapter 07
00:20:24.515 : en:Chapter 08
00:22:00.528 : en:Chapter 09
00:26:34.468 : en:Chapter 10
00:31:40.774 : en:Chapter 11
00:35:16.948 : en:Chapter 12
00:39:00.380 : en:Chapter 13
00:41:49.924 : en:Chapter 14
00:46:16.232 : en:Chapter 15
00:50:30.027 : en:Chapter 16
00:53:56.066 : en:Chapter 17
00:56:27.426 : en:Chapter 18
00:58:25.711 : en:Chapter 19
01:00:26.039 : en:Chapter 20
01:03:59.294 : en:Chapter 21
01:07:57.490 : en:Chapter 22
01:09:38.466 : en:Chapter 23
01:13:27.820 : en:Chapter 24
01:17:49.123 : en:Chapter 25
01:20:56.018 : en:Chapter 26
01:24:05.916 : en:Chapter 27
01:26:21.343 : en:Chapter 28
01:29:28.905 : en:Chapter 29
01:31:41.287 : en:Chapter 30
01:33:26.351 : en:Chapter 31
01:35:29.307 : en:Chapter 32
01:38:54.554 : en:Chapter 33
01:42:16.172 : en:Chapter 34
01:45:19.021 : en:Chapter 35
01:49:00.576 : en:Chapter 36

Source Information
Release: FraMeSToR REMUX


Note From UTR
We have no issue with individuals posting or re-uploading our torrents on a platform we aren't on. However, if this is something you'd like to do, please do so in a 'as-is' format. We ask that you do not create a new torrent, include all descriptions you see above including the UTR logo, tags, notes and screenshots. If you'd like to become a permanent poster on a website we don't post to, feel free to get in contact with a UniTeam member.

If possible please donate: BTC 1QA5fum5AyXvWzdVCkQzUNvw3Ef15fHRaR


Category:Movies > HEVC/x265
Lang:English  English
Total Size:13.28 GB
Info Hash:9a204b3c22a36abeab544f68a1aa4c8949a196fa
Added By:UTRHD
Date Added:13-08-2018 12:10:47

Files

File List: 
 File Size
Deadpool.2.(2018).1080p.BluRay.10-bit.x265.DTS-HD.MA 7.1 Qman[UTR-HD].(930F7821).mkv13.28 GB



Comments

There are currently no comments. Be the first one to write something !