bad boys Greys Anatomy S16E19 The Call of the Wild 2020 yts The Sinner S03E08 The Walking Dead S10E14 Fantasy Island 2020 underwater jumanji the next level 2019 Frozen II 2019 blacklist the way back 2020 Brooklyn Nine-Nine S07E09 Joker 2019 bloodshot xxx RuPauls Drag Race S12E05 etrg Ozark s03e05 onward 2020 greys anatomy Star Trek Picard Sonic the Hedgehog 2020 evo Contagion 2011 ozark the blacklist  WALKING DEAD a quiet place part ii 2020 Trolls World Tour 2020 ethd Ozark s03e04 Star Trek Picard S01E09 MacGyver S04E07 bad boys for life The Invisible Man 2020 The Gentlemen 2019 The Hunt 2020 gold rush 1917 2019 ettv ddr Deputy s01e13 Tiger King Murder, Mayhem and Madness S01E01 The Platform 2019 Spenser Confidential 2020 Westworld s03e02 The Banker 2020 Star Trek Picard S01E10 the walking dead Hawaii Five-0 S10E21 The Blacklist S07E12 bad boys for life 2020 Westworld Underwater 2020 hindi Spies in Disguise 2019 the gentlemen 2020 Dolittle 2020 etmovies Birds of Prey (and the Fantabulous Emancipation of One Harley Quinn) 2020 Ozark S03E01 bloodshot 2020 knives out 2019 the gentlemen Ozark s03e02 the call of the wild Picard rq.mp4 brooklyn nine nine Ozark s03e03 Star Wars The Rise of Skywalker 2019 
ETTV Recommended TV Shows
The.Walking.Dead.S10E14.WEB.H264-XLF[ettv] torrent
Hawaii.Five-0.2010.S10E21.HDTV.x264-SVA[ettv] torrent
Strike.Back.S08E07.WEB.H264-XLF[ettv] torrent
WWE Smackdown 2020 03 27 HDTV x264-Star [TJET] torrent

ETTV Recommended SD
Homeward.2020.BRRip.XviD.AC3-EVO torrent
What.Love.Looks.Like.2020.HDRip.XviD.AC3-EVO torrent
Red Shoes and the Seven Dwarfs.2020.HDRip.XviD-EVO torrent
In.Vino.2019.HDRip.XviD.AC3-EVO torrent

ETTV Recommended HD
What.Love.Looks.Like.2020.1080p.AMZN.WEB-DL.DDP2.0.H264-CMRG[EtHD] torrent
Haunt.2019.1080p.BluRay.x264-GETiT[EtHD] torrent
Red Shoes and the Seven Dwarfs.2020.1080p.HDRip.X264.AC3-EVO[EtHD] torrent
In.Vino.2019.1080p.WEB-DL.H264.AC3-EVO[EtHD] torrent

ETTV Recommended UHD
Star.Wars.Episode.IX.The.Rise.of.Skywalker.2019.4K.HDR.2160p.BDRip Ita Eng x265-NAHOM torrent
Transformers.Age.of.Extinction.2014.BDRip.2160p.UHD.HDR.TrueHD.ETRG torrent
Transformers.The.Last.Knight.2017.BDRip.2160p.UHD.HDR.TrueHD.ETRG torrent
Lady.and.the.Tramp 2019 4K.HDR.2160p.WEBDL Ita Eng x265-NAHOM torrent

ETTV Recommended Cam
My Spy 2020 HDCAM x264 AC3-ETRG torrent
The Hunt 2020 HDCAM x264 AC3-ETRG torrent
The Burnt Orange Heresy 2020 720p HDCAM-C1NEM4 torrent
Fantasy Island 2020 UNRATED HDTS XViD AC3-ETRG torrent

ETTV Recommended Foreign
Bonus.2020.1080p.AMZN.WEB-DL.DD+5.1.x264-Telly torrent
Underwater (2020) HDRip 720p [Hindi-Dub] Dual-Audio x264 - 1XCinema torrent
Bloodshot (2020) ITA-ENG Ac3 5.1 WEBRip 1080p H264 [ArMor] torrent
The Black Hole (2006) 720p WEBRip x264 Eng Subs [Dual Audio] [Hindi DD 2.0 - English 2.0] Exclusive By -=!Dr.STAR!=- torrent


Download Torrent "Jonathan Strange and Mr. Norrell S01 1080p BluRay BDrip x265 AAC 5.1 D0ct0..."

IMDB Details
Description:

N/A

Genre:

N/A

Download Torrent (Magnet)
Seeds: 120
Leechers: 227
Completed: 665 
Last Checked: 05-08-2018 17:59:33


Details
Title:Jonathan Strange and Mr. Norrell S01 1080p BluRay BDrip x265 AAC 5.1 D0ct0...
Description:



Screenshots
Source



Encode




Media Information

Unique ID : 180680947919200545168662390953604880601 (0x87EDE2821B91FF7E8B6258DA404D18D9)
Complete name :Jonathan Strange and Mr. Norrell S01E01 The Friends of English Magic 1080p BluRay BDrip x265 AAC 5.1 D0ct0rLew[UTR-HD].mkv
Format : Matroska
Format version : Version 4 / Version 2
File size : 2.07 GiB
Duration : 59 min 33 s
Overall bit rate : 4 974 kb/s
Encoded date : UTC 2018-08-05 14:21:10
Writing application : mkvmerge v15.0.0 ('Duel with the Devil') 64-bit
Writing library : libebml v1.3.5 + libmatroska v1.4.5

Video
ID : 4
Format : HEVC
Format/Info : High Efficiency Video Coding
Format profile : Main [email protected]@Main
Codec ID : V_MPEGH/ISO/HEVC
Duration : 59 min 33 s
Bit rate : 4 386 kb/s
Width : 1 920 pixels
Height : 1 080 pixels
Display aspect ratio : 16:9
Frame rate mode : Constant
Frame rate : 25.000 FPS
Color space : YUV
Chroma subsampling : 4:2:0
Bit depth : 10 bits
Bits/(Pixel*Frame) : 0.085
Stream size : 1.82 GiB (88%)
Writing library : x265 2.7+348-0968a46d6ba4:[Windows][MSVC 1914][64 bit] 10bit
Encoding settings : cpuid=1049583 / frame-threads=3 / numa-pools=8 / wpp / no-pmode / no-pme / no-psnr / no-ssim / log-level=2 / input-csp=1 / input-res=1920x1080 / interlace=0 / total-frames=89344 / level-idc=0 / high-tier=1 / uhd-bd=0 / ref=4 / no-allow-non-conformance / no-repeat-headers / annexb / no-aud / no-hrd / info / hash=0 / no-temporal-layers / open-gop / min-keyint=25 / keyint=250 / gop-lookahead=0 / bframes=8 / b-adapt=2 / b-pyramid / bframe-bias=0 / rc-lookahead=90 / lookahead-slices=4 / scenecut=40 / radl=0 / no-intra-refresh / ctu=64 / min-cu-size=8 / rect / amp / max-tu-size=32 / tu-inter-depth=2 / tu-intra-depth=2 / limit-tu=4 / rdoq-level=2 / dynamic-rd=0.00 / no-ssim-rd / signhide / no-tskip / nr-intra=0 / nr-inter=0 / no-constrained-intra / no-strong-intra-smoothing / max-merge=3 / limit-refs=2 / limit-modes / me=3 / subme=3 / merange=92 / temporal-mvp / weightp / weightb / no-analyze-src-pics / deblock=-1:-1 / sao / no-sao-non-deblock / rd=6 / no-early-skip / rskip / no-fast-intra / no-tskip-fast / no-cu-lossless / b-intra / no-splitrd-skip / rdpenalty=0 / psy-rd=1.00 / psy-rdoq=1.00 / no-rd-refine / no-lossless / cbqpoffs=1 / crqpoffs=1 / rc=crf / crf=19.5 / qcomp=0.50 / qpstep=4 / stats-write=0 / stats-read=0 / ipratio=1.40 / pbratio=1.30 / aq-mode=3 / aq-strength=1.10 / cutree / zone-count=0 / no-strict-cbr / qg-size=32 / no-rc-grain / qpmax=69 / qpmin=0 / no-const-vbv / sar=0 / overscan=0 / videoformat=5 / range=0 / colorprim=2 / transfer=2 / colormatrix=2 / chromaloc=0 / display-window=0 / max-cll=0,0 / min-luma=0 / max-luma=1023 / log2-max-poc-lsb=8 / vui-timing-info / vui-hrd-info / slices=1 / no-opt-qp-pps / no-opt-ref-list-length-pps / no-multi-pass-opt-rps / scenecut-bias=0.05 / no-opt-cu-delta-qp / no-aq-motion / no-hdr / no-hdr-opt / no-dhdr10-opt / no-idr-recovery-sei / analysis-reuse-level=5 / scale-factor=0 / refine-intra=0 / refine-inter=0 / refine-mv=0 / no-limit-sao / ctu-info=0 / no-lowpass-dct / refine-mv-type=0 / copy-pic=1 / max-ausize-factor=1.0 / no-dynamic-refine / no-single-sei
Default : Yes
Forced : No

Audio
ID : 3
Format : AAC
Format/Info : Advanced Audio Codec
Format profile : LC
Codec ID : A_AAC-2
Duration : 59 min 33 s
Bit rate : 576 kb/s
Channel(s) : 6 channels
Channel positions : Front: L C R, Side: L R, LFE
Sampling rate : 48.0 kHz
Frame rate : 46.875 FPS (1024 SPF)
Compression mode : Lossy
Delay relative to video : 9 ms
Stream size : 245 MiB (12%)
Language : English
Default : Yes
Forced : No

Text #1
ID : 1
Format : UTF-8
Codec ID : S_TEXT/UTF8
Codec ID/Info : UTF-8 Plain Text
Duration : 58 min 32 s
Bit rate : 80 b/s
Count of elements : 828
Stream size : 34.4 KiB (0%)
Language : English
Default : Yes
Forced : No

Text #2
ID : 2
Format : VobSub
Muxing mode : zlib
Codec ID : S_VOBSUB
Codec ID/Info : Picture based subtitle format used on DVDs
Duration : 57 min 27 s
Bit rate : 14.3 kb/s
Count of elements : 1749
Stream size : 5.87 MiB (0%)
Language : German
Default : No
Forced : No

Menu
00:00:00.000 : en:Chapter 1
00:07:56.000 : en:Chapter 2
00:17:43.280 : en:Chapter 3
00:28:34.800 : en:Chapter 4
00:41:21.280 : en:Chapter 5
00:48:29.200 : en:Chapter 6


Source Media Information

Unique ID : 304992974119734279784698016899083594073 (0xE573829A66FB84A61575CC251DB8E959)
Complete name : Jonathan.Strange.and.Mr.Norrell.S01E01.The.Friends.of.English.Magic.1080i.BluRay.REMUX.AVC.DTS-HD.MA.5.1-EPSiLON.mkv
Format : Matroska
Format version : Version 4 / Version 2
File size : 9.15 GiB
Duration : 59 min 33 s
Overall bit rate mode : Variable
Overall bit rate : 22.0 Mb/s
Encoded date : UTC 2018-02-10 16:04:18
Writing application : mkvmerge v20.0.0 ('I Am The Sun') 64-bit
Writing library : libebml v1.3.5 + libmatroska v1.4.8

Video
ID : 1
Format : AVC
Format/Info : Advanced Video Codec
Format profile : [email protected]
Format settings : CABAC / 4 Ref Frames
Format settings, CABAC : Yes
Format settings, RefFrames : 4 frames
Codec ID : V_MPEG4/ISO/AVC
Duration : 59 min 33 s
Bit rate mode : Variable
Bit rate : 20.0 Mb/s
Maximum bit rate : 35.0 Mb/s
Width : 1 920 pixels
Height : 1 080 pixels
Display aspect ratio : 16:9
Frame rate mode : Constant
Frame rate : 25.000 FPS
Color space : YUV
Chroma subsampling : 4:2:0
Bit depth : 8 bits
Scan type : Progressive
Bits/(Pixel*Frame) : 0.386
Stream size : 8.32 GiB (91%)
Title : MPEG-4 AVC Video / ~19992 kbps / 1080p / 25 fps / 16:9 / High Profile 4.1
Language : English
Default : Yes
Forced : No

Audio
ID : 2
Format : DTS
Format/Info : Digital Theater Systems
Format profile : MA / Core
Codec ID : A_DTS
Duration : 59 min 33 s
Bit rate mode : Variable / Constant
Bit rate : 1 858 kb/s / 1 509 kb/s
Channel(s) : 6 channels
Channel positions : Front: L C R, Side: L R, LFE
Sampling rate : 48.0 kHz
Frame rate : 93.750 FPS (512 SPF)
Bit depth : 16 bits
Compression mode : Lossless / Lossy
Stream size : 792 MiB (8%)
Title : DTS-HD Master Audio / 5.1 / 48 kHz / 1858 kbps / 16-bit
Language : English
Default : Yes
Forced : No

Text #1
ID : 3
Format : PGS
Codec ID : S_HDMV/PGS
Codec ID/Info : Picture based subtitle format used on BDs/HD-DVDs
Duration : 3 s 680 ms
Bit rate : 241 kb/s
Count of elements : 4
Stream size : 108 KiB (0%)
Title : Forced
Language : English
Default : Yes
Forced : No

Text #2
ID : 4
Format : PGS
Codec ID : S_HDMV/PGS
Codec ID/Info : Picture based subtitle format used on BDs/HD-DVDs
Duration : 57 min 27 s
Bit rate : 139 kb/s
Count of elements : 2591
Stream size : 57.0 MiB (1%)
Language : German
Default : No
Forced : No

Menu
00:00:00.000 : en:Chapter 1
00:07:56.000 : en:Chapter 2
00:17:43.280 : en:Chapter 3
00:28:34.800 : en:Chapter 4
00:41:21.280 : en:Chapter 5
00:48:29.200 : en:Chapter 6

We have no issue with individuals posting or re-uploading our torrents on a platform we aren't on. However, if this is something you'd like to do, please do so in a 'as-is' format. We ask that you do not create a new torrent, include all descriptions you see above including the UTR logo, tags, notes and screenshots. If you'd like to become a permanent poster on a website we don't post to, feel free to get in contact with a UniTeam member.





Category:TV > HEVC/x265
Lang:English  English
Total Size:20.18 GB
Info Hash:58dd384c7c48d95d77a1995751ce3b04529f4b49
Added By:UTRHD
Date Added:05-08-2018 17:59:28

Files

File List: 
 File Size
Jonathan Strange and Mr. Norrell S01E01 The Friends of English Magic 1080p BluRay BDrip x265 AAC 5.1 D0ct0rLew[UTR-HD].mkv2.07 GB
Jonathan Strange and Mr. Norrell S01E02 How Is Lady Pole 1080p BluRay BDrip x265 AAC 5.1 D0ct0rLew[UTR-HD].mkv2.20 GB
Jonathan Strange and Mr. Norrell S01E03 The Education of a Magician 1080p BluRay BDrip x265 AAC 5.1 D0ct0rLew[UTR-HD].mkv2.57 GB
Jonathan Strange and Mr. Norrell S01E04 All the Mirrors of the World 1080p BluRay BDrip x265 AAC 5.1 D0ct0rLew[UTR-HD].mkv2.36 GB
Jonathan Strange and Mr. Norrell S01E05 Arabella 1080p BluRay BDrip x265 AAC 5.1 D0ct0rLew[UTR-HD].mkv2.40 GB
Jonathan Strange and Mr. Norrell S01E06 The Black Tower 1080p BluRay BDrip x265 AAC 5.1 D0ct0rLew[UTR-HD].mkv4.20 GB
Jonathan Strange and Mr. Norrell S01E07 Jonathan Strange and Mr. Norrell 1080p BluRay BDrip x265 AAC 5.1 D0ct0rLew[UTR-HD].mkv4.39 GB



Comments

There are currently no comments. Be the first one to write something !