bad boys Greys Anatomy S16E19 The Call of the Wild 2020 yts The Sinner S03E08 The Walking Dead S10E14 Fantasy Island 2020 underwater jumanji the next level 2019 Frozen II 2019 blacklist the way back 2020 Brooklyn Nine-Nine S07E09 Joker 2019 bloodshot xxx RuPauls Drag Race S12E05 etrg Ozark s03e05 onward 2020 greys anatomy Star Trek Picard Sonic the Hedgehog 2020 evo Contagion 2011 ozark the blacklist  WALKING DEAD a quiet place part ii 2020 Trolls World Tour 2020 ethd Ozark s03e04 Star Trek Picard S01E09 MacGyver S04E07 bad boys for life The Invisible Man 2020 The Gentlemen 2019 The Hunt 2020 gold rush 1917 2019 ettv ddr Deputy s01e13 Tiger King Murder, Mayhem and Madness S01E01 The Platform 2019 Spenser Confidential 2020 Westworld s03e02 The Banker 2020 Star Trek Picard S01E10 the walking dead Hawaii Five-0 S10E21 The Blacklist S07E12 bad boys for life 2020 Westworld Underwater 2020 hindi Spies in Disguise 2019 the gentlemen 2020 Dolittle 2020 etmovies Birds of Prey (and the Fantabulous Emancipation of One Harley Quinn) 2020 Ozark S03E01 bloodshot 2020 knives out 2019 the gentlemen Ozark s03e02 the call of the wild Picard rq.mp4 brooklyn nine nine Ozark s03e03 Star Wars The Rise of Skywalker 2019 
ETTV Recommended TV Shows
The.Walking.Dead.S10E14.WEB.H264-XLF[ettv] torrent
Hawaii.Five-0.2010.S10E21.HDTV.x264-SVA[ettv] torrent
Strike.Back.S08E07.WEB.H264-XLF[ettv] torrent
WWE Smackdown 2020 03 27 HDTV x264-Star [TJET] torrent

ETTV Recommended SD
Homeward.2020.BRRip.XviD.AC3-EVO torrent
What.Love.Looks.Like.2020.HDRip.XviD.AC3-EVO torrent
Red Shoes and the Seven Dwarfs.2020.HDRip.XviD-EVO torrent
In.Vino.2019.HDRip.XviD.AC3-EVO torrent

ETTV Recommended HD
What.Love.Looks.Like.2020.1080p.AMZN.WEB-DL.DDP2.0.H264-CMRG[EtHD] torrent
Haunt.2019.1080p.BluRay.x264-GETiT[EtHD] torrent
Red Shoes and the Seven Dwarfs.2020.1080p.HDRip.X264.AC3-EVO[EtHD] torrent
In.Vino.2019.1080p.WEB-DL.H264.AC3-EVO[EtHD] torrent

ETTV Recommended UHD
Star.Wars.Episode.IX.The.Rise.of.Skywalker.2019.4K.HDR.2160p.BDRip Ita Eng x265-NAHOM torrent
Transformers.Age.of.Extinction.2014.BDRip.2160p.UHD.HDR.TrueHD.ETRG torrent
Transformers.The.Last.Knight.2017.BDRip.2160p.UHD.HDR.TrueHD.ETRG torrent
Lady.and.the.Tramp 2019 4K.HDR.2160p.WEBDL Ita Eng x265-NAHOM torrent

ETTV Recommended Cam
My Spy 2020 HDCAM x264 AC3-ETRG torrent
The Hunt 2020 HDCAM x264 AC3-ETRG torrent
The Burnt Orange Heresy 2020 720p HDCAM-C1NEM4 torrent
Fantasy Island 2020 UNRATED HDTS XViD AC3-ETRG torrent

ETTV Recommended Foreign
Bonus.2020.1080p.AMZN.WEB-DL.DD+5.1.x264-Telly torrent
Underwater (2020) HDRip 720p [Hindi-Dub] Dual-Audio x264 - 1XCinema torrent
Bloodshot (2020) ITA-ENG Ac3 5.1 WEBRip 1080p H264 [ArMor] torrent
The Black Hole (2006) 720p WEBRip x264 Eng Subs [Dual Audio] [Hindi DD 2.0 - English 2.0] Exclusive By -=!Dr.STAR!=- torrent


Download Torrent "Avengers Infinity War (2018) (1080p BluRay 10bit x265 HEVC DTS-HD MA 7.1 Qm..."

IMDB Details
Description:

The Avengers and their allies must be willing to sacrifice all in an attempt to defeat the powerful Thanos before his blitz of devastation and ruin puts an end to the universe.

Genre:

Action, Adventure, Fantasy

Download Torrent (Magnet)
Seeds: 7
Leechers: 0
Completed: 1,985 
Last Checked: 04-08-2018 10:52:47


Details
Title:Avengers Infinity War (2018) (1080p BluRay 10bit x265 HEVC DTS-HD MA 7.1 Qm...
Description:





Media Information
General
Format : Matroska
Format version : Version 4 / Version 2
File size : 11.7 GiB
Duration : 2 h 29 min
Overall bit rate : 11.2 Mb/s
Movie name : Avengers: Infinity War
Encoded date : UTC 2018-08-04 02:54:43
Writing application : mkvmerge v25.0.0 ('Prog Noir') 64-bit
Writing library : libebml v1.3.6 + libmatroska v1.4.9

Video
ID : 1
Format : HEVC
Format/Info : High Efficiency Video Coding
Format profile : Main [email protected]@Main
Codec ID : V_MPEGH/ISO/HEVC
Duration : 2 h 29 min
Bit rate : 5 948 kb/s
Width : 1 920 pixels
Height : 1 080 pixels
Display aspect ratio : 16:9
Frame rate mode : Constant
Frame rate : 23.976 (24000/1001) FPS
Color space : YUV
Chroma subsampling : 4:2:0
Bit depth : 10 bits
Bits/(Pixel*Frame) : 0.120
Stream size : 6.21 GiB (53%)
Writing library : x265 2.8+40-0106f9f2f867:[Windows][MSVC 1914][64 bit] 10bit
Encoding settings : cpuid=1111039 / frame-threads=4 / numa-pools=16 / wpp / no-pmode / no-pme / no-psnr / no-ssim / log-level=2 / input-csp=1 / input-res=1920x1080 / interlace=0 / total-frames=214855 / level-idc=0 / high-tier=1 / uhd-bd=0 / ref=4 / no-allow-non-conformance / no-repeat-headers / annexb / no-aud / no-hrd / info / hash=0 / no-temporal-layers / open-gop / min-keyint=23 / keyint=250 / gop-lookahead=0 / bframes=8 / b-adapt=2 / b-pyramid / bframe-bias=0 / rc-lookahead=120 / lookahead-slices=4 / scenecut=40 / radl=0 / no-intra-refresh / ctu=64 / min-cu-size=8 / rect / amp / max-tu-size=32 / tu-inter-depth=2 / tu-intra-depth=2 / limit-tu=4 / rdoq-level=2 / dynamic-rd=0.00 / no-ssim-rd / signhide / no-tskip / nr-intra=0 / nr-inter=0 / no-constrained-intra / no-strong-intra-smoothing / max-merge=3 / limit-refs=2 / limit-modes / me=3 / subme=5 / merange=57 / temporal-mvp / weightp / weightb / no-analyze-src-pics / deblock=-1:-1 / no-sao / no-sao-non-deblock / rd=6 / no-early-skip / no-rskip / no-fast-intra / no-tskip-fast / no-cu-lossless / b-intra / no-splitrd-skip / rdpenalty=0 / psy-rd=1.00 / psy-rdoq=5.00 / no-rd-refine / no-lossless / cbqpoffs=0 / crqpoffs=0 / rc=crf / crf=18.0 / qcomp=0.60 / qpstep=4 / stats-write=0 / stats-read=0 / ipratio=1.40 / pbratio=1.30 / aq-mode=3 / aq-strength=1.00 / cutree / zone-count=0 / no-strict-cbr / qg-size=32 / no-rc-grain / qpmax=69 / qpmin=0 / no-const-vbv / sar=0 / overscan=0 / videoformat=5 / range=0 / colorprim=2 / transfer=2 / colormatrix=2 / chromaloc=0 / display-window=0 / max-cll=0,0 / min-luma=0 / max-luma=1023 / log2-max-poc-lsb=8 / vui-timing-info / vui-hrd-info / slices=1 / no-opt-qp-pps / no-opt-ref-list-length-pps / no-multi-pass-opt-rps / scenecut-bias=0.05 / no-opt-cu-delta-qp / no-aq-motion / no-hdr / no-hdr-opt / no-dhdr10-opt / no-idr-recovery-sei / analysis-reuse-level=5 / scale-factor=0 / refine-intra=0 / refine-inter=0 / refine-mv=0 / no-limit-sao / ctu-info=0 / no-lowpass-dct / refine-mv-type=0 / copy-pic=1 / max-ausize-factor=1.0 / no-dynamic-refine / no-single-sei
Language : English
Default : Yes
Forced : No

Audio #1
ID : 2
Format : DTS
Format/Info : Digital Theater Systems
Format profile : MA / Core
Mode : 16
Format settings, Endianness : Big
Codec ID : A_DTS
Duration : 2 h 29 min
Bit rate mode : Variable / Constant
Bit rate : 4 901 kb/s / 1 509 kb/s
Channel(s) : 8 channels / 6 channels
Channel positions : Front: L C R, Side: L R, Back: L R, LFE / Front: L C R, Side: L R, LFE
Sampling rate : 48.0 kHz
Frame rate : 93.750 FPS (512 spf)
Bit depth : 24 bits
Compression mode : Lossless / Lossy
Stream size : 5.11 GiB (44%)
Language : English
Default : Yes
Forced : No

Audio #2
ID : 3
Format : AC-3
Format/Info : Audio Coding 3
Mode extension : CM (complete main)
Format settings, Endianness : Big
Codec ID : A_AC3
Duration : 2 h 29 min
Bit rate mode : Constant
Bit rate : 192 kb/s
Channel(s) : 2 channels
Channel positions : Front: L R
Sampling rate : 48.0 kHz
Frame rate : 31.250 FPS (1536 spf)
Bit depth : 16 bits
Compression mode : Lossy
Stream size : 205 MiB (2%)
Title : Commentary by Directors Anthony Russo & Joe Russo and Screenwriters Christopher Markus & Stephen McFeely
Language : English
Default : No
Forced : No

Subtitle #1
ID : 4
Format : PGS
Muxing mode : zlib
Codec ID : S_HDMV/PGS
Codec ID/Info : Picture based subtitle format used on BDs/HD-DVDs
Duration : 1 s 126 ms
Bit rate : 86.4 kb/s
Count of elements : 2
Stream size : 11.9 KiB (0%)
Title : Forced for foreign parts
Language : English
Default : Yes
Forced : No

Subtitle #2
ID : 5
Format : PGS
Muxing mode : zlib
Codec ID : S_HDMV/PGS
Codec ID/Info : Picture based subtitle format used on BDs/HD-DVDs
Duration : 2 h 28 min
Bit rate : 32.9 kb/s
Count of elements : 4134
Stream size : 34.9 MiB (0%)
Title : SDH
Language : English
Default : No
Forced : No

Subtitle #3
ID : 6
Format : PGS
Muxing mode : zlib
Codec ID : S_HDMV/PGS
Codec ID/Info : Picture based subtitle format used on BDs/HD-DVDs
Duration : 2 h 28 min
Bit rate : 24.8 kb/s
Count of elements : 3194
Stream size : 26.4 MiB (0%)
Title : Canadian
Language : French
Default : No
Forced : No

Subtitle #4
ID : 7
Format : PGS
Muxing mode : zlib
Codec ID : S_HDMV/PGS
Codec ID/Info : Picture based subtitle format used on BDs/HD-DVDs
Duration : 2 h 28 min
Bit rate : 25.5 kb/s
Count of elements : 3132
Stream size : 27.2 MiB (0%)
Title : Brazilian
Language : Portuguese
Default : No
Forced : No

Subtitle #5
ID : 8
Format : PGS
Muxing mode : zlib
Codec ID : S_HDMV/PGS
Codec ID/Info : Picture based subtitle format used on BDs/HD-DVDs
Duration : 2 h 28 min
Bit rate : 24.3 kb/s
Count of elements : 3144
Stream size : 25.9 MiB (0%)
Title : Latin American
Language : Spanish
Default : No
Forced : No

Subtitle #6
ID : 9
Format : PGS
Muxing mode : zlib
Codec ID : S_HDMV/PGS
Codec ID/Info : Picture based subtitle format used on BDs/HD-DVDs
Duration : 2 h 29 min
Bit rate : 79.2 kb/s
Count of elements : 6036
Stream size : 84.5 MiB (1%)
Title : Commentary by Directors Anthony Russo & Joe Russo and Screenwriters Christopher Markus & Stephen McFeely (SDH)
Language : English
Default : No
Forced : No

Subtitle #7
ID : 10
Format : PGS
Muxing mode : zlib
Codec ID : S_HDMV/PGS
Codec ID/Info : Picture based subtitle format used on BDs/HD-DVDs
Duration : 2 h 29 min
Bit rate : 66.7 kb/s
Count of elements : 5839
Stream size : 71.2 MiB (1%)
Title : Commentary by Directors Anthony Russo & Joe Russo and Screenwriters Christopher Markus & Stephen McFeely (Canadian)
Language : French
Default : No
Forced : No

Subtitle #8
ID : 11
Format : PGS
Muxing mode : zlib
Codec ID : S_HDMV/PGS
Codec ID/Info : Picture based subtitle format used on BDs/HD-DVDs
Duration : 2 h 29 min
Bit rate : 66.9 kb/s
Count of elements : 5789
Stream size : 71.4 MiB (1%)
Title : Commentary by Directors Anthony Russo & Joe Russo and Screenwriters Christopher Markus & Stephen McFeely (Brazilian)
Language : Portuguese
Default : No
Forced : No

Subtitle #9
ID : 12
Format : PGS
Muxing mode : zlib
Codec ID : S_HDMV/PGS
Codec ID/Info : Picture based subtitle format used on BDs/HD-DVDs
Duration : 2 h 29 min
Bit rate : 69.3 kb/s
Count of elements : 5785
Stream size : 74.0 MiB (1%)
Title : Commentary by Directors Anthony Russo & Joe Russo and Screenwriters Christopher Markus & Stephen McFeely (Latin American)
Language : Spanish
Default : No
Forced : No

Menu
00:00:00.000 : en:"Thanos is Coming"
00:11:28.730 : en:Infinity Stones
00:18:13.884 : en:Fight for the Time Stone
00:27:23.809 : en:"Who the Hell are You Guys?"
00:35:48.813 : en:Wanda and Vision
00:42:23.541 : en:Knowhere
00:54:12.875 : en:Avengers Assemble
00:59:36.740 : en:"Take the Fight To Him"
01:05:07.153 : en:The Soul Stone
01:10:53.666 : en:Nidavellir
01:17:06.956 : en:Titan
01:24:14.758 : en:Vormir
01:31:08.004 : en:"Wakanda Forever"
01:42:00.406 : en:Stormbreaker
01:45:57.810 : en:Titan Confrontation
01:53:04.069 : en:"A Vision Situation"
01:58:52.917 : en:The Time Stone
02:03:58.181 : en:The End Game
02:11:13.282 : en:Aftermath
02:17:31.285 : en:End Credits

Source Information
Release: Unknown Source/NO-GROUP


Note From UTR
We have no issue with individuals posting or re-uploading our torrents on a platform we aren't on. However, if this is something you'd like to do, please do so in a 'as-is' format. We ask that you do not create a new torrent, include all descriptions you see above including the UTR logo, tags, notes and screenshots. If you'd like to become a permanent poster on a website we don't post to, feel free to get in contact with a UniTeam member.

If possible please donate: BTC 1QA5fum5AyXvWzdVCkQzUNvw3Ef15fHRaR


Category:Movies > HEVC/x265
Lang:English  English
Total Size:11.65 GB
Info Hash:96fd0c1f2c660ee38fc04818288af4b15abc0b0e
Added By:UTRHD
Date Added:04-08-2018 10:52:43

Files

File List: 
 File Size
Avengers.Infinity.War.(2018).1080p.BluRay.10-bit.x265.DTS-HD.MA.7.1 Qman[UTR].mkv11.65 GB



Comments

<< Previous      Next >>
1 - 1

[Report] Posted: 10-01-2020 at 12:52:49
samwise_jr


Please seed

1 - 1
<< Previous      Next >>